Manuel.Creampies.Their.Asses.2.XXX.720p.WEBRiP.MP4-TBP

Cover:

Titel: Manül Creampies Their Asses 2
Genre: Amateur
Sprache/n: Englisch
Größe: 3846,84 MB
Parts: 36 Dateien

File: tbp.720pmcta2.mp4
Size: 3993306999 bytes (3,72 GiB), duration: 02:11:05, avg.bitrate: 4062 kb/s
Audio: aac, 48000 Hz, stereo (und)
Video: h264, yuv420p, 1280×720, 29,97 fps(r) (und)
by-blackbaba

NFO:

Code:

THE.BEST.PORN.GIVESManuel.Creampies.Their.Asses.2.XXX.720p.WEBRiP.MP4TBPWEBSITE : http://www.adultdvdempire.com/1723218/manuelcreampiestheirasses2pornvideos.htmlqsManuel20Creampies20Their20Asses202TYPE : MP4SIZE : 80 x 50MBComplete name : tbp.720pmcta2.mp4
Format : MPEG4
Format profile : Base Media
Codec ID : isom
File size : 3.72 GiB
Duration : 2h 11mn
Overall bit rate : 4 062 Kbps
Writing application : Lavf56.4.101
ID : 1
Format : AVC
Format/Info : Advanced Video Codec
Format profile : MainL3.1
Format settings CABAC : Yes
Format settings ReFrames : 3 frames
Codec ID : avc1
Codec ID/Info : Advanced Video Coding
Duration : 2h 11mn
Bit rate : 4 000 Kbps
Width : 1 280 pixels
Height : 720 pixels
Display aspect ratio : 16:9
Frame rate mode : Variable
Frame rate : 29.970 fps
Minimum frame rate : 13.198 fps
Maximum frame rate : 29.970 fps
Color space : YUV
Chroma subsampling : 4:2:0
Bit depth : 8 bits
Scan type : Progressive
Bits/PixelFrame : 0.145
Stream size : 3.65 GiB 98
Writing library : x264 core 124 r2197 69a0443
Encoding settings : cabac1 / ref3 / deblock1:0:0 / analyse0x1:0x111 / mehex / subme5 / psy0 / mixedref0 / merange16 / chromame1 / trellis1 / 8x8dct0 / cqm0 / deadzone2111 / fastpskip1 / chromaqpoffset0 / threads12 / slicedthreads0 / nr0 / decimate1 / interlaced0 / bluraycompat0 / constrainedintra0 / bframes3 / bpyramid0 / badapt1 / bbias0 / direct1 / weightb0 / opengop0 / weightp2 / keyint300 / keyintmin29 / scenecut40 / intrarefresh0 / rcabr / mbtree0 / bitrate4000 / ratetol1.0 / qcomp0.60 / qpmin10 / qpmax51 / qpstep4 / ipratio1.40 / pbratio1.30 / aq1:1.00
ID : 2
Format : AAC
Format/Info : Advanced Audio Codec
Format profile : LC
Codec ID : 40
Duration : 2h 11mn
Bit rate mode : Constant
Bit rate : 64.1 Kbps
Channels : 2 channels
Channel positions : Front: L R
Sampling rate : 48.0 KHz
Compression mode : Lossy
Stream size : 60.1 MiB 2
REVIEWURL :

Alle Mirror sind untereinander kompatibel!

Share-online.biz

Share-online.biz

Uploaded.net

Uploaded.net

Irony, pathos, tragedy, flatulence, and all of the other great literary techniques.






Share this